Blackvue DR650GW-2CH _ (Custom firmware)

alexsoll

Well-Known Member
Retailer
Joined
Apr 14, 2013
Messages
1,711
Likes
1,252
Location
Minsk
Country
Belarus
Dash Cam
Street Guardian, BlackVue, TrendVision
#1
January 30, 2015
We made a custom firmware for Blackvue DR650GW-2CH with support wdr, bitrate, etc.
Started testing.




raw: https://yadi.sk/i/h8TMsBjpeRHdn

Format : MPEG-4
Format profile : Base Media
Codec ID : isom
File size : 597 MiB
Duration : 6mn 6s
Overall bit rate : 13.7 Mbps
Encoded date : UTC 1970-01-01 00:00:00
Tagged date : UTC 1970-01-01 00:00:00
Writing application : Lavf52.34.0

Video
ID : 1
Format : AVC
Format/Info : Advanced Video Codec
Format profile : High@L4.2
Format settings, CABAC : Yes
Format settings, ReFrames : 1 frame
Codec ID : avc1
Codec ID/Info : Advanced Video Coding
Duration : 6mn 6s
Bit rate : 13.6 Mbps
Width : 1 920 pixels
Height : 1 080 pixels
Display aspect ratio : 16:9
Frame rate mode : Constant
Frame rate : 29.970 fps
Color space : YUV
Chroma subsampling : 4:2:0
Bit depth : 8 bits
Scan type : Progressive
Bits/(Pixel*Frame) : 0.219
Stream size : 595 MiB (100%)
Encoded date : UTC 1970-01-01 00:00:00
Tagged date : UTC 1970-01-01 00:00:00

Audio
ID : 2
Format : AAC
Format/Info : Advanced Audio Codec
Format profile : LC
Codec ID : 40
Duration : 6mn 6s
Bit rate mode : Constant
Bit rate : 48.0 Kbps
Channel(s) : 2 channels
Channel positions : Front: L R
Sampling rate : 16.0 KHz
Compression mode : Lossy
Stream size : 2.09 MiB (0%)
Encoded date : UTC 1970-01-01 00:00:00
Tagged date : UTC 1970-01-01 00:00:00


raw: https://yadi.sk/i/OddxBwMyePgGA


WDR/ISP - the moment switching

 
Last edited:

qnap

New Member
Joined
Jan 30, 2015
Messages
2
Likes
0
Country
United Kingdom
Dash Cam
Blackvue DR650GW-2CH
#4
Joined
Jan 3, 2015
Messages
46
Likes
2
Country
Canada
#7
Just curious, is there a way to go back to stock FW after flashing custom FW. I am struggling to become donate member(tester)
 
Joined
Jan 31, 2015
Messages
59
Likes
25
Country
United Kingdom
#9
Hi Alexsoll,

Thank you for providing update on the progress of the custom firmware. Looks good and I am looking forward to when released.

Can you provide information on improvements to the rear camera?

Thanks
 
OP
OP
alexsoll

alexsoll

Well-Known Member
Retailer
Joined
Apr 14, 2013
Messages
1,711
Likes
1,252
Location
Minsk
Country
Belarus
Dash Cam
Street Guardian, BlackVue, TrendVision
#10
Blackvue DR650GW-2CH сopy speed Wi-Fi on custom firmware
file 1 minute = 85 MB (12 bitrate)



 
OP
OP
alexsoll

alexsoll

Well-Known Member
Retailer
Joined
Apr 14, 2013
Messages
1,711
Likes
1,252
Location
Minsk
Country
Belarus
Dash Cam
Street Guardian, BlackVue, TrendVision
#12
noticed, and I thought no one would notice ))
 

qnap

New Member
Joined
Jan 30, 2015
Messages
2
Likes
0
Country
United Kingdom
Dash Cam
Blackvue DR650GW-2CH
#14
Looking good with the higher bitrate. Any idea of how long a release for us would be?
 
OP
OP
alexsoll

alexsoll

Well-Known Member
Retailer
Joined
Apr 14, 2013
Messages
1,711
Likes
1,252
Location
Minsk
Country
Belarus
Dash Cam
Street Guardian, BlackVue, TrendVision
#18
Joined
Jan 31, 2015
Messages
16
Likes
5
Country
United Kingdom
#19
Just curious, is there a way to go back to stock FW after flashing custom FW. I am struggling to become donate member(tester)
Yes you can go back to the normal firmware by formatting you card and copying the latest firmware 1.003 I believe on to it and putting your card back in to your Blackvue and turning it on . You might even be able to do via wifi on your phone app
 

Similar threads

Top