Review: REXING V6 1080P HD DVR 170 Degree Wide Angle Car DVR (Gearbest.com)

Olgu

Active Member
Joined
Oct 5, 2013
Messages
274
Reaction score
104
Location
İzmir, Turkey
Country
Turkey
Dash Cam
Panorama X2
Thanks @GearBest RAW files coming soon..

REXING V6 1PC 12MP 1080P HD DVR 170 Degree Wide Angle Car DVR




General
Bit rate : 11.9 Mbps
Width : 1 920 pixels
Height : 1 080 pixels
Display aspect ratio : 16:9
Frame rate mode : Constant
Frame rate : 30.000 fps
Color space : YUV
Chroma subsampling : 4:2:0
Bit depth : 8 bits
Scan type : Progressive
Bits/(Pixel*Frame) : 0.191
Stream size : 112 MiB (91%)
Language : English
Encoded date : UTC 2016-04-15 18:21:03
Tagged date : UTC 2016-04-15 18:21:03

Audio
ID : 2
Format : PCM
Format settings, Endianness : Little
Format settings, Sign : Signed
Codec ID : sowt
Duration : 1mn 19s
Bit rate mode : Constant
Bit rate : 512 Kbps
Channel(s) : 1 channel
Sampling rate : 32.0 KHz
Bit depth : 16 bits
Stream size : 4.82 MiB (4%)
Language : English
Encoded date : UTC 2016-04-15 18:21:03
Tagged date : UTC 2016-04-15 18:21:03

MpGYNa.jpg


QB3XV3.jpg
Xk1WPR.jpg
bDX8Bd.jpg
d3djOV.jpg
57l9Dj.jpg
 
Top