TrendVision Split

alexsoll

Well-Known Member
Retailer
Joined
Apr 14, 2013
Messages
1,751
Reaction score
1,498
Location
Minsk
Country
Belarus
Dash Cam
Street Guardian, BlackVue, TrendVision



Format : MPEG-4
Format profile : QuickTime
Codec ID : qt 0000.02 (qt )
File size : 262 MiB
Duration : 3 min 0 s
Overall bit rate : 12.2 Mb/s
Encoded date : UTC 2017-03-23 17:11:08
Tagged date : UTC 2017-03-23 17:11:08

Video
ID : 1
Format : AVC
Format/Info : Advanced Video Codec
Format profile : Main@L4
Format settings, CABAC : Yes
Format settings, ReFrames : 1 frame
Format settings, GOP : M=1, N=30
Codec ID : avc1
Codec ID/Info : Advanced Video Coding
Duration : 2 min 59 s
Bit rate : 11.6 Mb/s
Width : 1 920 pixels
Height : 1 080 pixels
Display aspect ratio : 16:9
Frame rate mode : Constant
Frame rate : 29.718 FPS
Color space : YUV
Chroma subsampling : 4:2:0
Bit depth : 8 bits
Scan type : Progressive
Bits/(Pixel*Frame) : 0.189
Stream size : 250 MiB (95%)
Language : English
Encoded date : UTC 2017-03-23 17:11:08
Tagged date : UTC 2017-03-23 17:11:08

Audio
ID : 2
Format : PCM
Format settings, Endianness : Little
Format settings, Sign : Signed
Codec ID : sowt
Duration : 3 min 0 s
Bit rate mode : Constant
Bit rate : 512 kb/s
Channel(s) : 1 channel
Sampling rate : 32.0 kHz
Bit depth : 16 bits
Stream size : 11.0 MiB (4%)
Language : English
Encoded date : UTC 2017-03-23 17:11:08
Tagged date : UTC 2017-03-23 17:11:08









 
Top