BlackVue DR500W - Custom firmware + Converting to English / Russian

stevenhu

New Member
Joined
Aug 6, 2014
Messages
4
Reaction score
0
Country
China
I got error 403 (access forbidden) when follow the custom firmware URL.
 
OP
alexsoll

alexsoll

Well-Known Member
Retailer
Joined
Apr 14, 2013
Messages
1,742
Reaction score
1,474
Location
Minsk
Country
Belarus
Dash Cam
Street Guardian, BlackVue, TrendVision
OP
alexsoll

alexsoll

Well-Known Member
Retailer
Joined
Apr 14, 2013
Messages
1,742
Reaction score
1,474
Location
Minsk
Country
Belarus
Dash Cam
Street Guardian, BlackVue, TrendVision
an update is available
 
OP
alexsoll

alexsoll

Well-Known Member
Retailer
Joined
Apr 14, 2013
Messages
1,742
Reaction score
1,474
Location
Minsk
Country
Belarus
Dash Cam
Street Guardian, BlackVue, TrendVision
BlackVue DR500W-HD
Raw: https://yadi.sk/i/edz_HB-ydPzFQ

General
Complete name : F:\BlackVue\Record\20141215_225056_N.mp4
Format : MPEG-4
Format profile : Base Media / Version 2
Codec ID : mp42
File size : 42.5 MiB
Duration : 18s 103ms
Overall bit rate mode : Variable
Overall bit rate : 19.7 Mbps
Encoded date : UTC 2014-12-15 19:51:14
Tagged date : UTC 2014-12-15 19:51:14

Video
ID : 1
Format : AVC
Format/Info : Advanced Video Codec
Format profile : High@L4.1
Format settings, CABAC : Yes
Format settings, ReFrames : 1 frame
Muxing mode : Container profile=Baseline@0.1
Codec ID : avc1
Codec ID/Info : Advanced Video Coding
Duration : 18s 103ms
Source duration : 18s 137ms
Bit rate mode : Variable
Bit rate : 19.6 Mbps
Maximum bit rate : 20.5 Mbps
Width : 1 920 pixels
Height : 1 080 pixels
Display aspect ratio : 16:9
Frame rate mode : Variable
Frame rate : 29.057 fps
Minimum frame rate : 14.706 fps
Maximum frame rate : 30.303 fps
Standard : NTSC
Color space : YUV
Chroma subsampling : 4:2:0
Bit depth : 8 bits
Scan type : Progressive
Bits/(Pixel*Frame) : 0.325
Stream size : 42.3 MiB (100%)
Source stream size : 42.4 MiB (100%)
Language : English
Encoded date : UTC 2014-12-15 19:51:14
Tagged date : UTC 2014-12-15 19:51:14
mdhd_Duration : 18103

Audio
ID : 2
Format : AAC
Format/Info : Advanced Audio Codec
Format profile : LC
Codec ID : 40
Duration : 18s 5ms
Bit rate mode : Constant
Bit rate : 24.1 Kbps
Channel(s) : 1 channel
Channel positions : Front: C
Sampling rate : 8 000 Hz
Compression mode : Lossy
Stream size : 52.9 KiB (0%)
Language : English
Encoded date : UTC 2014-12-15 19:51:14
Tagged date : UTC 2014-12-15 19:51:14
 

Similar threads


Top